redcarpetmusic
» » Liszt - Damenchor Des Rundfunkchors Berlin, Berliner Philharmoniker, Daniel Barenboim - Dante Symphony & Sonata

Liszt - Damenchor Des Rundfunkchors Berlin, Berliner Philharmoniker, Daniel Barenboim - Dante Symphony & Sonata album

Liszt - Damenchor Des Rundfunkchors Berlin, Berliner Philharmoniker, Daniel Barenboim - Dante Symphony & Sonata album
  • Performer Liszt
  • Title Dante Symphony & Sonata
  • Date of release 1994
  • Country US
  • Style Romantic
  • Other formats DXD MIDI AIFF MP1 XM MPC XM
  • Genre Classical
  • Size MP3 1929 mb
  • Size FLAC 1336 mb
  • Rating: 4.7
  • Votes: 900

Chorus – Damenchor Des Rundfunkchors Berlin (tracks: 3. Orchestra – Berliner Philharmoniker (tracks: 1 to 3). Piano – Daniel Barenboim (tracks: 4). Producer – Bernhard Mnich (tracks: 1 to 3), Metropolitan (5) (tracks: 4). Notes.

Dante Symphony S109 : III Magnificat · Daniel Barenboim. Liszt : Symphonies & Sonatas. 1994 Teldec Classics International GMBH. Orchestra: Berlin Philharmonic Orchestra Choir: Damenchor des Rundfunkchors Berlin Conductor: Daniel Barenboim Director: Dietrich Knothe Composer: Franz Liszt. Auto-generated by YouTube.

Dante Symphony S109 : II Purgatorio · Daniel Barenboim. Choir: Damenchor des Rundfunkchors Berlin Conductor: Daniel Barenboim Director: Dietrich Knothe Orchestra: Berlin Philharmonic Orchestra Composer: Franz Liszt.

Dante Symphony, S. 109: Magnificat. Daniel Barenboim and Berliner Philharmoniker. 4. Dante Sonata, S. 161, No. 7 - Fantasia quasi Sonata. 4 Songs, 1 Hour 6 Minutes. Released: 1 Sep 1991. 1991 Teldec Classics International GmbH.

Damenchor des Rundfunkchors Berlin, Berliner Philharmoniker. Dietrich Knothe (director). This disc proves conclusively that the DanteSymphony, a contemporary of the Faust Symphony, no longer needs its apologists. Tone, full and rounded, firm and true, and rocksteady pacing elevate the opening beyond its all-too familiar resemblance to a third-rate horror-film soundtrack.

Liszt’s Dante Symphony is a work of astonishing imagination. His evocation of the ‘Inferno’, the shade of Francesca da Rimini and her sad remembered love is marked by strokes of genius which, with bewildering frequency, pre-empt the mature Wagner (who was, incidentally, the dedicatee of the work). If the second and third movements – the ‘Paradiso’ was wisely commuted to a setting of part of the Magnificat plus a brief Hosanna – don’t quite match the sweep and control of the first, they have their own particular magic. Even so, the work has not acquired the popularity of the Faust Symphony

Sinopoli gives us two pieces from Busoni's Dr Faustus, whereas Barenboim plays the piano. His reading of the Dante Sonata is, I think, one of the best; but he recorded the same piece ever better on Deutsche Gramophon on a solo album containing a magnificent performance of the Sonata in B minor. I'm inclined to put Barenboim's recording on the same level as Masur's. Two very different view of the same work, both indispensable.

Daniel Barenboim, conductor" REM DATE 1992 INDEX 00 21:34:25 INDEX 01 21:40:52 TRACK 03 AUDIO TITLE "Eine Symphonie zu Dantes Divina Commedia, S. 109: Magnificat" PERFORMER "Damenchor des Rundfunkchors Berlin, Berliner Philharmoniker. Daniel Barenboim, conductor" REM DATE 1992 INDEX 01 42:30:07 TRACK 04 AUDIO TITLE " Aprés une lecture du Dante (Fantasia quasi Sonata), S. 161 No. 7" PERFORMER "Daniel Barenboim, piano" REM DATE 1993 INDEX 00 50:03:17 INDEX 01 50:12:62. Franz Liszt - каталог раздач на pympekep. top Все мои раздачи, All my releases.

MusicforEggplant - Coeur de Jihad (feat Matthew Randle & Baptiste Graztmuller) MusicforEggplant - Lamento Liszt - Dante Symphony, S109: . nferno, by the Berliner Philharmoniker, Damenchor des Rundfunkchors Berlin, Daniel Barenboim & Dietrich Knothe Rolly Teranishi - Suicide Kiss (from the movie Suicide Club) However, they cleverly use a truly eclectic palette of sounds taken from artists belonging to different genres, even videogames. n, Coil, Liszt, Einstürzende Neubauten, Lakker, Anbb, Future Sound of London, Biosphere and Sun Ra are among the artists they chose to complete the discourse this mix embeds. All in all, the experience MusicforEggplant proposes here is a truly immersive dialogue about the dystopian reality the world has lived, is living and will live.

Composer: Franz Liszt Other participants: Berliner Philharmoniker, Damenchor des Rundfunkchors Berlin. Audio sample & Tracklisting. Disc 1. 01. Dante Symphony S109 : I Inferno - Daniel Barenboim. Liszt : Dante Symphony S109 : I Inferno - Daniel Barenboim. 02. Dante Symphony S109 : II Purgatorio - Daniel Barenboim. Liszt : Dante Symphony S109 : II Purgatorio - Daniel Barenboim. 03. Dante Symphony S109 : III Magnificat - Daniel Barenboim. Liszt : Dante Symphony S109 : III Magnificat - Daniel Barenboim

Tracklist

A Symphony To Dante's "Divine Comedy", S109 / Symphonie Pour La "Divine Comédie" De Dante / Eine Sinfonie Zu Dantes "Divina Commedia"
I Inferno 21:35
II Purgatorio 20:49
Magnificat 7:33
Après Une Lecture De Dante (Fantasia Quasi Sonata), S161/7 ("Dante Sonata")
No.7 From Années De Pèlerinage, Deuxième Année — Italie 16:18

Versions

Category Artist Title (Format) Label Category Country Year
9031-77340-2 Liszt* - Damenchor Des Rundfunkchors Berlin*, Berliner Philharmoniker, Daniel Barenboim Liszt* - Damenchor Des Rundfunkchors Berlin*, Berliner Philharmoniker, Daniel Barenboim - Dante Symphony & Sonata ‎(CD, Album) Teldec Classics 9031-77340-2 US 1994
D 105807, 9031-77340-2 Franz Liszt – Daniel Barenboim Conductor & Piano, Berliner Philharmoniker Franz Liszt – Daniel Barenboim Conductor & Piano, Berliner Philharmoniker - Dante Symphony • Dante Sonata ‎(CD, Album, Club) TELDEC, Teldec Classics D 105807, 9031-77340-2 US 1994
2564 67301-2 Liszt* - Damenchor Des Rundfunkchors Berlin*, Berliner Philharmoniker, Daniel Barenboim Liszt* - Damenchor Des Rundfunkchors Berlin*, Berliner Philharmoniker, Daniel Barenboim - Dante Symphony & Sonata ‎(CD, Album, RE) Apex 2564 67301-2 UK 2011